web analytics
After Earth ,Despues de la tierra ,2013 ,Ts-Screener ,Latino ,PL-MG-FS-BS DVDRip Descargar Gratis « Taringada Taringada
jun
23
2013
Sin categoría

After Earth ,Despues de la tierra ,2013 ,Ts-Screener ,Latino ,PL-MG-FS-BS DVDRip Descargar Gratis

After Earth ,Despues de la tierra ,2013 ,Ts-Screener ,Latino ,PL-MG-FS-BS DVDRip Descargar Gratis descargar gratis, 1 link, full HD; descargar dvdrip latino, castellano, rmvb, putlocker, mf, mediafire, torrent, ver online, BRRip, 1080p, descarga directa After Earth ,Despues de la tierra ,2013 ,Ts-Screener ,Latino ,PL-MG-FS-BS DVDRip Descargar Gratis descargar gratis, 1 link, full HD; descargar dvdrip latino, castellano, rmvb, putlocker, mf, mediafire, torrent, ver online, BRRip, 1080p, descarga directa





Luego de mil años de los cataclismos que obligaron a la humanidad a escapar de la Tierra, Nove Prime se convirtió en el nuevo hogar de la especie humana. El legendario General Cypher Raige (Will Smith) después de un extenso viaje en servicio, regresa con su distanciada familia, Kitai (Jaden Smith), su hijo de 13 años a punto de ser padre..



Título original: Despues de la tierra
Año: 2013
Duración: 100 min.
País: Estados Unidos
Director: M. Night Shyamalan
Guión: M. Night Shyamalan, Stephen Gaghan, Gary Whitta
Música: James Newton Howard
Fotografía: Peter Suschitzky
Reparto: Will Smith, Jaden Smith, Sophie Okonedo, Zoe Kravitz, Isabelle Fuhrman
Productora: Sony Pictures / Columbia Pictures / Overbrook Entertainment / Blinding Edge Pictures
Género: Ciencia ficción. Acción | Futuro postapocalíptico








Duración: 1h con 33 min. aprox.
Idioma: Español Latino.
Tamaño: 737 MB aprox.
Formato: AVI
Calidad: TS-SCREENER

Mediainfo Completa

[spoiler]
General
Complete name : /disco4/maurici2/public_html/rapidleech/files/Descargas-Directas/Des.d.l.ti.avi
Format : AVI
Format/Info : Audio Video Interleave
File size : 737 MiB
Duration : 1h 33mn
Overall bit rate : 1 104 Kbps
Writing application : Lavf52.84.0

Video
ID : 0
Format : MPEG-4 Visual
Codec ID : FMP4
Duration : 1h 33mn
Bit rate : 963 Kbps
Width : 608 pixels
Height : 296 pixels
Display aspect ratio : 2.054
Frame rate : 25.000 fps
Color space : YUV
Chroma subsampling : 4:2:0
Compression mode : Lossy
Bits/(Pixel*Frame) : 0.214
Stream size : 643 MiB (87%)

Audio
ID : 1
Format : MPEG Audio
Format version : Version 1
Format profile : Layer 3
Mode : Joint stereo
Mode extension : MS Stereo
Codec ID : 55
Codec ID/Hint : MP3
Duration : 1h 33mn
Bit rate mode : Constant
Bit rate : 128 Kbps
Channel(s) : 2 channels
Sampling rate : 48.0 KHz
Compression mode : Lossy
Stream size : 85.5 MiB (12%)
Alignment : Aligned on interleaves
Interleave, duration : 24 ms (0.60 video frame)
[/spoiler]






http://d.taringada.com/decode.php?h=aHR0cDovL2ZyZWFrc2hhcmUuY29tL2ZpbGVzL2pkdzFtdDVoL0RETFQyMDEzLnJhci5odG1s

http://d.taringada.com/decode.php?h=aHR0cDovL2JpdHNoYXJlLmNvbS9maWxlcy9peXF4NGttaS9ERExUMjAxMy5yYXIuaHRtbA==
Opcion de Reserva
http://&http://d.taringada.com/decode.php?h=Iw==91;img]http://i.minus.com/ibhVG….png&http://d.taringada.com/decode.php?h=Iw==91;/img]
http://d.taringada.com/decode.php?h=aHR0cDovL3lvdWxpbmsuaW4vbC8zNDI5OQ==
After Earth ,Despues de la tierra ,2013 ,Ts-Screener ,Latino ,PL-MG-FS-BS DVDRip Descargar Gratis descargar gratis, 1 link, full HD; descargar dvdrip latino, castellano, rmvb, putlocker, mf, mediafire, torrent, ver online, BRRip, 1080p, descarga directa

About the Author:

Leave a comment

You must be logged in to post a comment.