web analytics
Monsters Inc. 2: Monsters University ,2013 ,Cam ,Latino ,FS-BS DVDRip Descargar Gratis « Taringada Taringada
jun
24
2013
Sin categoría

Monsters Inc. 2: Monsters University ,2013 ,Cam ,Latino ,FS-BS DVDRip Descargar Gratis

Monsters Inc. 2: Monsters University ,2013 ,Cam ,Latino ,FS-BS DVDRip Descargar Gratis descargar gratis, 1 link, full HD; descargar dvdrip latino, castellano, rmvb, putlocker, mf, mediafire, torrent, ver online, BRRip, 1080p, descarga directa Monsters Inc. 2: Monsters University ,2013 ,Cam ,Latino ,FS-BS DVDRip Descargar Gratis descargar gratis, 1 link, full HD; descargar dvdrip latino, castellano, rmvb, putlocker, mf, mediafire, torrent, ver online, BRRip, 1080p, descarga directa





Mike Wazowski (Billy Crystal) y James P. Sullivan (John Goodman) son un par de amigos inseparables, pero eso no fue siempre así. Desde el momento en que estos dos monstruos muy diferentes se conocieron en la Universidad, no se podían soportar. Monsters University cuenta la historia de cómo Mike y Sulley superaron sus diferencias y se convirtieron en mejores amigos. Precuela de uno de los mayores éxitos de Pixar, ?Monstruos, S.A.?



Título original: Monsters University (Monsters, Inc. 2)
País: USA
Estreno en USA: 21/06/2013
Estreno en España: 21/06/2013
Productora: Pixar Animation Studios, Walt Disney Pictures
Director: Dan Scanlon
Guión: Andrew Stanton, Pete Docter
Reparto: (Voces de) Billy Crystal, John Goodman, Steve Buscemi, Dave Foley, Julia Sweeney, Joel Murray, Peter Sohn
Calificación: Apta para todos los públicos








Duración: 1h 32min
Idioma: Latino
Tamaño: 750mb
Formato: avi
Calidad: Cam

Mediainfo Completa

[spoiler]General
Complete name : MUCL.avi
Format : AVI
Format/Info : Audio Video Interleave
File size : 749 MiB
Duration : 1h 32mn
Overall bit rate : 1 126 Kbps
Writing application : Lavf52.84.0

Video
ID : 0
Format : MPEG-4 Visual
Codec ID : FMP4
Duration : 1h 32mn
Bit rate : 984 Kbps
Width : 608 pixels
Height : 296 pixels
Display aspect ratio : 2.054
Frame rate : 29.970 fps
Color space : YUV
Chroma subsampling : 4:2:0
Compression mode : Lossy
Bits/(Pixel*Frame) : 0.183
Stream size : 655 MiB (87%)

Audio
ID : 1
Format : MPEG Audio
Format version : Version 1
Format profile : Layer 3
Mode : Joint stereo
Mode extension : MS Stereo
Codec ID : 55
Codec ID/Hint : MP3
Duration : 1h 32mn
Bit rate mode : Constant
Bit rate : 128 Kbps
Channel(s) : 2 channels
Sampling rate : 48.0 KHz
Compression mode : Lossy
Stream size : 85.1 MiB (11%)
Alignment : Aligned on interleaves
Interleave, duration : 24 ms (0.72 video frame)
Interleave, preload duration : 24 ms[/spoiler]






http://d.taringada.com/decode.php?h=aHR0cDovL2ZyZWFrc2hhcmUuY29tL2ZpbGVzL2xraDR1NG4xL01VQ0wucmFyLmh0bWw=



http://d.taringada.com/decode.php?h=aHR0cDovL2JpdHNoYXJlLmNvbS9maWxlcy9rNm9tdXlzaC9NVUNMLnJhci5odG1s

Opcion 2



http://d.taringada.com/decode.php?h=aHR0cDovL3lvdWxpbmsuaW4vbC8zNDQxNg==

Monsters Inc. 2: Monsters University ,2013 ,Cam ,Latino ,FS-BS DVDRip Descargar Gratis descargar gratis, 1 link, full HD; descargar dvdrip latino, castellano, rmvb, putlocker, mf, mediafire, torrent, ver online, BRRip, 1080p, descarga directa

  • Monstruos University rapidlibrary

About the Author:

Leave a comment

You must be logged in to post a comment.