web analytics
Movie 43 ,R5 | | Ingles | 1 Link | RG/UL | 2013 DVDRip Descargar Gratis « Taringada Taringada
mar
24
2013
Sin categoría

Movie 43 ,R5 | | Ingles | 1 Link | RG/UL | 2013 DVDRip Descargar Gratis

Movie 43 ,R5 | | Ingles | 1 Link | RG/UL | 2013 DVDRip Descargar Gratis dvdrip, 1 link, ver online, voces castellano, español latino, full HD Movie 43 ,R5 | | Ingles | 1 Link | RG/UL | 2013 DVDRip Descargar Gratis torrent, rapidshare, mediafire, MEGA







Código:
DIRECTOR James Gunn, Peter Farrelly, Griffin Dunne, Elizabeth Banks, Brett Ratner, Bob Odenkirk, Steven Brill, Steve Carr, Rusty Cundieff, James Duffy, Patrik Forsberg
GUIÓN Steve Baker, Rocky Russo, Jeremy Sosenko, Will Carlough, Patrik Forsberg, Matt Portenoy, Greg Pritikin
MÚSICA Wiliam Goodrum
FOTOGRAFÍA Frank G. DeMarco, Steve Gainer, William Rexer, Tim Suhrstedt
REPARTO Adam Cagley, Devin Eash, Naomi Watts, Hugh Jackman, Kristen Bell, Halle Berry, Chloë Grace Moretz, Kate Winslet, Gerard Butler, Emma Stone, Johnny Knoxville, Uma Thurman, Elizabeth Banks, Stephen Merchant, Richard Gere, Kate Bosworth, Christopher Mintz-Plasse, Liev Schreiber, Seann William Scott, Josh Duhamel, Anna Faris, Tony Shalhoub, Jason Sudeikis, Chris Pratt, Justin Long, Leslie Bibb, Kieran Culkin, Jack McBrayer, Patrick Warburton, Matt Walsh, Jimmy Bennett
PRODUCTORA Relativity Media / GreeneStreet Films / Virgin Produced / Wessler Entertainment / Witness Protection Films
GÉNERO Comedia | Comedia negra. Sketches. Película de episodios



Código:
Película compuesta de sketches cómicos y un reparto plagado de estrellas. Los protagonistas son dos hermanos que buscan en internet la mítica “Movie 43″, prohibida en casi todo el mundo.







Código:
General
Complete name : /disco2/foroloc2/public_html/rapidleech/files/Descargas-Directas/Fil43.JonUp.mp4
Format : MPEG-4
Format profile : Base Media
Codec ID : isom
File size : 451 MiB
Duration : 1h 29mn
Overall bit rate : 706 Kbps
Encoded date : UTC 2013-03-23 21:58:09
Tagged date : UTC 2013-03-23 21:58:09

Video
ID : 1
Format : AVC
Format/Info : Advanced Video Codec
Format profile : [email protected]
Format settings, CABAC : Yes
Format settings, ReFrames : 4 frames
Codec ID : avc1
Codec ID/Info : Advanced Video Coding
Duration : 1h 29mn
Bit rate : 652 Kbps
Maximum bit rate : 2 669 Kbps
Width : 680 pixels
Height : 368 pixels
Display aspect ratio : 16:9
Frame rate mode : Constant
Frame rate : 24.000 fps
Color space : YUV
Chroma subsampling : 4:2:0
Bit depth : 8 bits
Scan type : Progressive
Bits/(Pixel*Frame) : 0.109
Stream size : 416 MiB (92%)
Title : 264#trackID=1:fps=[email protected]
Writing library : x264 core 130 r2273 b3065e6
Encoded date : UTC 2013-03-23 21:58:09
Tagged date : UTC 2013-03-23 21:59:27

Audio
ID : 2
Format : AAC
Format/Info : Advanced Audio Codec
Format profile : LC
Codec ID : 40
Duration : 1h 29mn
Bit rate mode : Variable
Bit rate : 48.0 Kbps
Maximum bit rate : 58.4 Kbps
Channel(s) : 2 channels
Channel positions : Front: L R
Sampling rate : 48.0 KHz
Compression mode : Lossy
Stream size : 31.9 MiB (7%)
Encoded date : UTC 2013-03-23 21:10:15
Tagged date : UTC 2013-03-23 21:59:27






Código:
http://***********.net/file/0b251929da42a35e3b4bf1e647b28dbb/Fil43.JonUp.mp4.html



Código:
http://***********/g35yau05

Movie 43 ,R5 | | Ingles | 1 Link | RG/UL | 2013 DVDRip Descargar Gratis dvdrip, 1 link, ver online, voces castellano, español latino, full HD

About the Author:

Leave a comment

You must be logged in to post a comment.